<?xml version="1.0" standalone="no"?>
<!DOCTYPE svg PUBLIC "-//W3C//DTD SVG 1.1//EN" "http://www.w3.org/Graphics/SVG/1.1/DTD/svg11.dtd" >
<svg xmlns="http://www.w3.org/2000/svg">
<metadata></metadata>
<defs>
<font id="untitledregular" horiz-adv-x="2048" >
<font-face units-per-em="2048" ascent="1536" descent="-512" />
<missing-glyph horiz-adv-x="500" />
<glyph />
<glyph />
<glyph unicode="&#xd;" />
<glyph unicode="f" horiz-adv-x="1673" d="M573 580v391h316v196q0 213 137 362.5t336 149.5h313v-391h-313q-31 0 -55.5 -33.5t-24.5 -83.5v-200h393v-391h-393v-949h-393v949h-316z" />
<glyph unicode="g" horiz-adv-x="1402" d="M0 -66q0 188 191.5 335t463.5 147h115q-90 86 -90 184q0 63 35 125q-14 -2 -62 -2q-223 0 -366 139q-143 137 -144 344q0 199 179 344q178 145 401 146h668l-148 -109h-211q98 -37 156.5 -144.5t58.5 -240.5q0 -199 -190 -348q-78 -61 -102.5 -98t-24.5 -92 q0 -43 57 -103q66 -70 117 -104q133 -96 182 -191q51 -96 51 -243q0 -193 -176 -336q-178 -143 -479 -144q-287 0 -484.5 107.5t-197.5 283.5zM242 6q0 -150 125 -252q125 -106 313 -106q248 0 367.5 92t119.5 256q0 43 -8 67q-18 66 -72 119q-27 29 -86 70l-53 37 q-14 8 -33.5 20.5t-23.5 16.5q-81 26 -160 26h-6h-8q-184 0 -330 -100q-145 -105 -145 -246zM379 1280q0 -23 4 -72q23 -170 129 -293q108 -122 236 -122h2h8q121 0 194 110q57 90 58 213q0 23 -4 74q-23 168 -129 289q-111 123 -236 123h-8q-123 0 -197 -111 q-57 -86 -57 -211z" />
<glyph unicode="o" horiz-adv-x="1110" d="M22 473q4 33 20.5 62.5t49.5 50.5q32 20 61 20h12q34 -6 97 -39q41 -23 76 -36t68.5 -20t70.5 -9t86 -2q47 0 84 2t69 9t64.5 20.5t73.5 35.5q66 33 100 38q6 1 11 1q29 0 61 -20q33 -20 51.5 -50t22.5 -63q1 -9 1 -17q-1 -24 -9 -48q-12 -32 -41 -56q-31 -25 -111 -58.5 t-172 -60.5q0 -18 137 -145q66 -72 107 -115t49 -57q8 -25 8 -49q0 -11 -1 -21q-5 -34 -24.5 -63t-50 -46.5t-69.5 -17.5q-20 0 -36 4.5t-37.5 19.5t-54 49t-87.5 89l-146 148l-145 -148q-45 -45 -75 -72.5t-50.5 -44t-32.5 -24.5t-22 -10q-24 -6 -47.5 -6t-47.5 6 q-25 8 -45 28.5t-31.5 47t-12.5 56t12 54.5q0 14 39.5 57t107.5 115q137 127 137 145q-92 27 -172 61t-112 58q-24 24 -36 56q-9 25 -9 50q0 7 1 15zM82 1151q14 143 102 249.5t226 151.5q18 6 32.5 10.5t30.5 6.5t36.5 2h53.5h48.5t35 -2t29.5 -6t33 -11 q111 -39 186.5 -115.5t113.5 -172.5q31 -79 31 -166q0 -20 -2 -40q-8 -108 -65 -206q-45 -78 -126 -139t-173 -86q-51 -11 -119 -11h-6q-64 0 -115 11q-86 25 -157.5 78t-117.5 123q-45 71 -67 153q-14 53 -14 108q0 30 4 62zM367 1100q0 -74 36.5 -123.5t108.5 -65.5 q26 -7 52 -7q44 0 86 20q66 32 93 98q12 37 12 71q0 79 -63 144q-41 43 -98 52q-17 3 -34 3q-38 0 -74 -14q-50 -20 -84.5 -67.5t-34.5 -110.5z" />
<glyph unicode="t" horiz-adv-x="2519" d="M0 -170q61 -6 123 -6q360 0 643 221q-172 4 -301 102q-135 102 -182 256q35 -8 96 -8q72 0 137 19q-182 35 -299 176t-117 330v6q106 -59 236 -64q-106 70 -169 183.5t-63 246.5q0 139 72 260q197 -244 469 -383q274 -141 596 -157q-14 63 -14 118q0 213 151.5 365 t366.5 152q223 0 377 -164q174 37 327 127q-57 -186 -225 -287q154 18 295 82q-98 -154 -256 -268v-68q0 -436 -246 -813q-125 -190 -295 -336q-176 -152 -417.5 -236.5t-511.5 -84.5q-426 0 -793 231z" />
<glyph unicode="v" horiz-adv-x="1230" d="M0 -162v856v840h369q180 0 289.5 -2t178 -9t110.5 -20.5t85 -36.5q109 -49 159 -133q45 -75 45 -184q0 -13 -1 -27q0 -57 -12.5 -102t-38.5 -90q-10 -18 -27.5 -38t-38 -38t-41 -33.5t-35.5 -23.5q-14 -8 -23 -14.5t-3 -12.5q2 -4 10 -6q4 -4 12.5 -5t18.5 -5 q109 -31 184.5 -103.5t101.5 -173.5q3 -23 5 -57q2 -24 1 -49v-20q-1 -36 -4.5 -69.5t-9.5 -56.5q-25 -102 -93 -181t-175 -132q-45 -23 -86 -37t-100 -20q-16 -4 -45 -6.5t-83.5 -5.5t-136 -4t-204.5 -1h-412zM428 147l143 11q61 0 100.5 2t67 6t48 12t44.5 21 q37 25 56.5 65.5t27.5 104.5q0 123 -100 174q-18 10 -41.5 16t-55.5 10t-74 5t-99 1h-117v-206v-222zM428 862h25q14 0 52 4t75 4q31 0 51 2t34.5 5.5t24.5 7.5t23 10q39 18 59.5 42t24.5 67q6 27 6 52q-1 30 -9 57q-16 50 -57 77q-12 8 -25.5 14t-35 9.5t-53 5.5t-78.5 6 h-117v-178v-185z" />
<glyph unicode="&#x2000;" horiz-adv-x="848" />
<glyph unicode="&#x2001;" horiz-adv-x="1696" />
<glyph unicode="&#x2002;" horiz-adv-x="848" />
<glyph unicode="&#x2003;" horiz-adv-x="1696" />
<glyph unicode="&#x2004;" horiz-adv-x="565" />
<glyph unicode="&#x2005;" horiz-adv-x="424" />
<glyph unicode="&#x2006;" horiz-adv-x="282" />
<glyph unicode="&#x2007;" horiz-adv-x="282" />
<glyph unicode="&#x2008;" horiz-adv-x="212" />
<glyph unicode="&#x2009;" horiz-adv-x="339" />
<glyph unicode="&#x200a;" horiz-adv-x="94" />
<glyph unicode="&#x202f;" horiz-adv-x="339" />
<glyph unicode="&#x205f;" horiz-adv-x="424" />
<glyph unicode="&#xe000;" horiz-adv-x="1024" d="M0 0z" />
</font>
</defs>
</svg>
